<?xml version="1.0" standalone="no"?>
<!DOCTYPE svg PUBLIC "-//W3C//DTD SVG 1.1//EN" "http://www.w3.org/Graphics/SVG/1.1/DTD/svg11.dtd" >
<svg xmlns="http://www.w3.org/2000/svg">
<metadata>Generated by IcoMoon</metadata>
<defs>
<font id="ncf_icons" horiz-adv-x="1024">
<font-face units-per-em="1024" ascent="960" descent="-64" />
<missing-glyph horiz-adv-x="1024" />
<glyph unicode="&#x20;" d="" horiz-adv-x="512" />
<glyph unicode="&#xe600;" d="M298.667 512l213.333-213.333 213.333 213.333z" />
<glyph unicode="&#xe601;" d="M316.373 588.374l195.627-195.627 195.627 195.627 60.373-60.373-256-256-256 256z" />
<glyph unicode="&#xe602;" d="M384 248.747l-177.92 177.92-60.373-60.373 238.293-238.293 512 512-60.373 60.373z" />
<glyph unicode="&#xe603;" d="M896 725.334q18.333 0 30.5-12.167t12.167-30.5q0-18-12.333-30.333l-512-512q-12.333-12.333-30.333-12.333t-30.333 12.333l-256 256q-12.333 12.333-12.333 30.333 0 18.333 12.167 30.5t30.5 12.167q18 0 30.333-12.333l225.667-226 481.667 482q12.333 12.333 30.333 12.333z" />
<glyph unicode="&#xe604;" d="M585.143 548.571q0-14.857-10.857-25.714l-256-256q-10.857-10.857-25.714-10.857t-25.714 10.857l-256 256q-10.857 10.857-10.857 25.714t10.857 25.714 25.714 10.857h512q14.857 0 25.714-10.857t10.857-25.714z" horiz-adv-x="585" />
<glyph unicode="&#xe605;" d="M954.857 627.428q0-22.857-16-38.857l-491.429-491.429q-16-16-38.857-16t-38.857 16l-284.571 284.571q-16 16-16 38.857t16 38.857l77.714 77.714q16 16 38.857 16t38.857-16l168-168.571 374.857 375.429q16 16 38.857 16t38.857-16l77.714-77.714q16-16 16-38.857z" />
<glyph unicode="&#xe606;" d="M424.653 102.502c-22.272 0-43.366 10.394-56.883 28.314l-182.938 241.715c-23.808 31.386-17.613 76.083 13.824 99.891 31.488 23.91 76.186 17.613 99.994-13.824l120.371-158.925 302.643 485.99c20.838 33.382 64.87 43.622 98.355 22.784 33.434-20.787 43.725-64.819 22.835-98.304l-357.581-573.952c-12.39-20.019-33.843-32.512-57.344-33.587-1.126-0.102-2.15-0.102-3.277-0.102z" />
<glyph unicode="&#xe607;" d="M0 576l383.75-383.75 383.75 383.75h-767.5z" horiz-adv-x="767" />
<glyph unicode="&#xe608;" d="M640 768l-384-384-128 128-128-128 256-256 512 512-128 128z" horiz-adv-x="768" />
<glyph unicode="&#xe609;" d="M810.667 664.96l-60.373 60.373-238.293-238.293-238.293 238.293-60.373-60.373 238.293-238.293-238.293-238.293 60.373-60.373 238.293 238.293 238.293-238.293 60.373 60.373-238.293 238.293z" />
<glyph unicode="&#xe60a;" d="M810.667 768q18.333 0 30.5-12.167t12.167-30.5q0-18-12.333-30.333l-268.667-268.333 268.667-268.333q12.333-12.333 12.333-30.333 0-18.333-12.167-30.5t-30.5-12.167q-18 0-30.333 12.333l-268.333 268.667-268.333-268.667q-12.333-12.333-30.333-12.333-18.333 0-30.5 12.167t-12.167 30.5q0 18 12.333 30.333l268.667 268.333-268.667 268.333q-12.333 12.333-12.333 30.333 0 18.333 12.167 30.5t30.5 12.167q18 0 30.333-12.333l268.333-268.667 268.333 268.667q12.333 12.333 30.333 12.333z" />
<glyph unicode="&#xe60b;" d="M-0.088 448c0 141.5 114.5 256 256 256 141.438 0 256-114.5 256-256s-114.562-256-256-256c-141.499 0-256 114.5-256 256z" horiz-adv-x="511" />
<glyph unicode="&#xe800;" d="M478.208 464.384l-459.776 215.040v111.616h914.432v-111.616zM478.208 338.432l454.656 215.040v-447.488h-914.432v448.512z" horiz-adv-x="950" />
<glyph unicode="&#xe801;" d="M0 100.864v621.568q0 37.888 26.624 64.512t64.512 26.624h841.728q37.888 0 64.512-26.624t26.624-64.512v-621.568q0-37.888-26.624-64.512t-64.512-27.648h-841.728q-36.864 0-64.512 27.648t-26.624 64.512zM72.704 100.864q0-8.192 6.144-13.312t12.288-5.12h841.728q7.168 0 12.288 5.12t6.144 13.312v438.272q-18.432-20.48-39.936-37.888-152.576-116.736-243.712-192.512-28.672-24.576-47.104-38.912t-49.152-27.648-58.368-13.312h-2.048q-26.624 0-58.368 13.312t-49.152 27.648-47.104 38.912q-90.112 75.776-243.712 192.512-21.504 17.408-39.936 37.888v-438.272zM72.704 722.432q0-96.256 83.968-162.816 110.592-86.016 229.376-180.224 4.096-3.072 20.48-17.408t25.6-21.504 25.6-17.408 28.672-16.384 24.576-5.12h2.048q11.264 0 24.576 5.12t28.672 16.384 25.6 17.408 25.6 21.504 20.48 17.408q118.784 94.208 229.376 180.224 30.72 24.576 57.344 66.56t26.624 74.752v14.336t-1.024 7.168-1.024 7.168-3.072 5.12-5.12 4.096-8.192 2.048h-841.728q-7.168 0-12.288-6.144t-6.144-12.288z" />
<glyph unicode="&#xe802;" d="M0 100.864v453.632q25.6-28.672 57.344-50.176 206.848-140.288 284.672-196.608 32.768-24.576 52.224-37.888t54.272-27.648 62.464-13.312h2.048q28.672 0 62.464 13.312t54.272 27.648 52.224 37.888q97.28 69.632 284.672 196.608 32.768 22.528 57.344 50.176v-453.632q0-37.888-26.624-64.512t-64.512-27.648h-841.728q-36.864 0-64.512 27.648t-26.624 64.512zM0 710.144q0 44.032 23.552 73.728t67.584 29.696h841.728q36.864 0 63.488-26.624t27.648-64.512q0-45.056-27.648-86.016t-69.632-70.656q-215.040-149.504-268.288-185.344-5.12-4.096-23.552-17.408t-30.72-22.528-29.696-18.432-33.792-15.36-27.648-5.12h-2.048q-12.288 0-27.648 5.12t-33.792 15.36-29.696 18.432-30.72 22.528-23.552 17.408q-52.224 35.84-150.528 103.424t-116.736 81.92q-35.84 23.552-66.56 65.536t-31.744 78.848z" />
<glyph unicode="&#xe803;" d="M0 173.568v548.864q0 67.584 48.128 115.712t116.736 49.152h547.84q68.608 0 116.736-49.152t48.128-115.712v-548.864q0-67.584-48.128-115.712t-116.736-49.152h-547.84q-68.608 0-116.736 49.152t-48.128 115.712zM146.432 283.136q0-22.528 16.384-38.912t37.888-15.36h476.16q22.528 0 38.912 15.36t15.36 38.912v249.856q-17.408-20.48-35.84-31.744-19.456-12.288-75.776-49.152t-87.040-56.32q-56.32-38.912-93.184-38.912t-94.208 38.912q-26.624 18.432-80.896 53.248t-80.896 52.224q-7.168 5.12-19.456 16.384t-17.408 15.36v-249.856zM146.432 612.864q0-21.504 17.408-44.032t38.912-36.864q26.624-18.432 77.824-51.2t74.752-47.104q1.024-1.024 9.216-6.144t12.288-8.192 11.264-7.168 14.336-8.192 12.288-5.12 12.288-4.096 12.288-2.048 11.264 2.048 13.312 4.096 12.288 5.12 13.312 8.192 11.264 7.168 12.288 8.192 10.24 6.144l152.576 99.328q19.456 13.312 37.888 35.84t17.408 41.984q0 23.552-15.36 39.936t-38.912 16.384h-476.16q-22.528 0-37.888-15.36t-16.384-38.912z" horiz-adv-x="878" />
<glyph unicode="&#xe804;" d="M854.016 794.112q45.056 0 75.776-30.72t30.72-75.776v-479.232q0-44.032-30.72-75.776t-75.776-30.72h-747.52q-45.056 0-75.776 30.72t-30.72 75.776v479.232q0 45.056 30.72 75.776t75.776 30.72h747.52zM422.912 329.216l-83.968 73.728-194.56-194.56h670.72l-194.56 194.56-82.944-73.728q-24.576-20.48-57.344-20.48t-57.344 20.48zM106.496 245.248l191.488 193.536-191.488 166.912v-360.448zM661.504 438.784l192.512-192.512v359.424zM854.016 687.616h-747.52v-11.264l350.208-307.2q9.216-7.168 23.552-7.168t22.528 7.168l351.232 307.2v11.264z" horiz-adv-x="961" />
<glyph unicode="&#xe805;" d="M593.92 402.944l264.192-273.408h-807.936l265.216 270.336 138.24-130.048zM64.512 766.464h778.24l-389.12-370.688zM644.096 450.048l263.168 247.808v-520.192zM0 177.664v520.192l265.216-248.832z" horiz-adv-x="907" />
<glyph unicode="&#xe806;" d="M0 118.272v659.456q0 8.192 2.048 18.432l471.040-471.040q39.936-39.936 97.28-39.936 56.32 0 96.256 39.936l471.040 471.040q2.048-9.216 2.048-18.432v-659.456q0-37.888-26.624-63.488t-63.488-26.624h-959.488q-36.864 0-63.488 26.624t-26.624 63.488zM64.512 863.744q13.312 4.096 25.6 4.096h959.488q12.288 0 25.6-4.096l-474.112-474.112q-13.312-12.288-31.744-12.288t-30.72 12.288z" horiz-adv-x="1140" />
<glyph unicode="&#xe807;" d="M107.52 954.88h1179.648q44.032 0 75.776-31.744t31.744-75.776v-803.84q0-45.056-31.744-76.8t-75.776-30.72h-1179.648q-44.032 0-75.776 30.72t-31.744 76.8v803.84q0 44.032 31.744 75.776t75.776 31.744zM178.176 794.112l519.168-433.152 519.168 433.152h-1038.336zM160.768 96.768h1073.152v571.392l-505.856-421.888h-62.464l-504.832 421.888v-571.392z" horiz-adv-x="1393" />
<glyph unicode="&#xe808;" d="M0 256.512v415.744q0 52.224 36.864 90.112t91.136 37.888h768q54.272 0 91.136-37.888t36.864-90.112v-415.744q0-54.272-36.864-91.136t-91.136-36.864h-768q-54.272 0-91.136 36.864t-36.864 91.136zM64.512 256.512q0-26.624 18.432-45.056t45.056-19.456h768q25.6 0 45.056 19.456t18.432 45.056l-249.856 187.392-139.264-103.424q-26.624-20.48-58.368-20.48t-58.368 20.48l-139.264 103.424zM64.512 296.448l223.232 167.936-223.232 167.936v-335.872zM64.512 672.256l249.856-188.416 27.648-19.456 132.096-100.352q16.384-12.288 37.888-12.288t37.888 12.288l409.6 308.224q0 25.6-18.432 45.056t-45.056 18.432h-768q-25.6 0-45.056-18.432t-18.432-45.056zM736.256 464.384l223.232-167.936v335.872z" />
<glyph unicode="&#xe809;" d="M36.864 411.136q0 29.696 20.48 52.224l372.736 371.712q21.504 21.504 51.2 21.504t52.224-21.504l43.008-43.008q21.504-21.504 21.504-51.2t-21.504-52.224l-167.936-167.936h402.432q29.696 0 48.128-20.48t18.432-52.224v-72.704q0-30.72-18.432-52.224t-48.128-21.504h-402.432l167.936-167.936q21.504-20.48 21.504-51.2t-21.504-51.2l-43.008-44.032q-21.504-20.48-52.224-20.48-29.696 0-51.2 20.48l-372.736 372.736q-20.48 21.504-20.48 51.2z" horiz-adv-x="878" />
<glyph unicode="&#xe80a;" d="M0 375.296v72.704q0 30.72 18.432 52.224t48.128 20.48h402.432l-166.912 167.936q-22.528 21.504-22.528 52.224t22.528 51.2l43.008 43.008q21.504 21.504 51.2 21.504t52.224-21.504l371.712-371.712q20.48-20.48 20.48-52.224 0-30.72-20.48-51.2l-371.712-372.736q-22.528-20.48-52.224-20.48t-51.2 20.48l-43.008 43.008q-22.528 21.504-22.528 52.224t22.528 52.224l166.912 166.912h-402.432q-29.696 0-48.128 21.504t-18.432 52.224z" horiz-adv-x="878" />
<glyph unicode="&#xe80b;" d="M88.064 484.864q0 14.336 11.264 25.6l423.936 423.936q10.24 10.24 25.6 10.24t25.6-10.24l94.208-95.232q11.264-10.24 11.264-25.6t-11.264-25.6l-303.104-303.104 303.104-304.128q11.264-10.24 11.264-25.6t-11.264-25.6l-94.208-95.232q-11.264-10.24-25.6-10.24t-25.6 10.24l-423.936 424.96q-11.264 10.24-11.264 25.6z" horiz-adv-x="731" />
<glyph unicode="&#xe80c;" d="M51.2 155.136q0 15.36 11.264 25.6l303.104 304.128-303.104 303.104q-11.264 11.264-11.264 25.6t11.264 25.6l94.208 95.232q11.264 10.24 26.624 10.24t25.6-10.24l423.936-423.936q10.24-11.264 10.24-25.6t-10.24-25.6l-423.936-423.936q-11.264-11.264-25.6-11.264t-26.624 11.264l-94.208 94.208q-11.264 11.264-11.264 25.6z" horiz-adv-x="731" />
<glyph unicode="&#xe80d;" d="M36.864 445.952q0 8.192 5.12 14.336l220.16 201.728q9.216 8.192 19.456 4.096 11.264-5.12 11.264-17.408v-128h712.704q8.192 0 13.312-5.12t5.12-12.288v-110.592q0-7.168-5.12-12.288t-13.312-5.12h-712.704v-128q0-12.288-11.264-17.408t-19.456 3.072l-220.16 200.704q-5.12 5.12-5.12 12.288z" />
<glyph unicode="&#xe80e;" d="M0 392.704v110.592q0 7.168 5.12 12.288t13.312 5.12h712.704v128q0 12.288 11.264 17.408t19.456-3.072l220.16-200.704q5.12-5.12 5.12-12.288 0-8.192-5.12-14.336l-220.16-201.728q-9.216-8.192-19.456-4.096-11.264 5.12-11.264 17.408v126.976h-712.704q-8.192 0-13.312 6.144t-5.12 12.288z" />
<glyph unicode="&#xe80f;" d="M0 448q0 119.808 59.392 220.16t158.72 159.744 221.184 59.392 220.16-59.392 159.744-159.744 58.368-220.16-58.368-220.16-159.744-159.744-220.16-59.392-221.184 59.392-158.72 159.744-59.392 220.16z" horiz-adv-x="878" />
<glyph unicode="&#xe810;" d="M0 448q0 119.808 59.392 220.16t158.72 159.744 221.184 59.392 220.16-59.392 159.744-159.744 58.368-220.16-58.368-220.16-159.744-159.744-220.16-59.392-221.184 59.392-158.72 159.744-59.392 220.16zM72.704 448q0-74.752 29.696-142.336t77.824-115.712 116.736-78.848 142.336-28.672 141.312 28.672 116.736 78.848 77.824 115.712 29.696 142.336-29.696 142.336-77.824 116.736-116.736 77.824-141.312 28.672-142.336-28.672-116.736-77.824-77.824-116.736-29.696-142.336z" horiz-adv-x="878" />
<glyph unicode="&#xe811;" d="M0 173.568v548.864q0 67.584 48.128 115.712t116.736 49.152h547.84q68.608 0 116.736-49.152t48.128-115.712v-548.864q0-67.584-48.128-115.712t-116.736-49.152h-547.84q-68.608 0-116.736 49.152t-48.128 115.712z" horiz-adv-x="878" />
<glyph unicode="&#xe812;" d="M0 173.568v548.864q0 67.584 48.128 115.712t116.736 49.152h547.84q68.608 0 116.736-49.152t48.128-115.712v-548.864q0-67.584-48.128-115.712t-116.736-49.152h-547.84q-68.608 0-116.736 49.152t-48.128 115.712z" horiz-adv-x="878" />
<glyph unicode="&#xe813;" d="M25.6 411.136q0 8.192 6.144 13.312l266.24 266.24q5.12 6.144 13.312 6.144t12.288-6.144l28.672-28.672q6.144-5.12 6.144-13.312t-6.144-12.288l-224.256-225.28 224.256-224.256q6.144-6.144 6.144-13.312t-6.144-13.312l-28.672-28.672q-5.12-5.12-12.288-5.12t-13.312 5.12l-266.24 267.264q-6.144 5.12-6.144 12.288z" horiz-adv-x="366" />
<glyph unicode="&#xe814;" d="M7.168 173.568q0 7.168 6.144 13.312l224.256 224.256-224.256 225.28q-6.144 5.12-6.144 12.288t6.144 13.312l28.672 28.672q5.12 6.144 13.312 6.144t12.288-6.144l267.264-266.24q5.12-5.12 5.12-13.312t-5.12-12.288l-267.264-267.264q-5.12-5.12-12.288-5.12t-13.312 5.12l-28.672 28.672q-6.144 6.144-6.144 13.312z" horiz-adv-x="366" />
<glyph unicode="&#xe815;" d="M0 247.296v475.136q0 67.584 48.128 115.712t116.736 49.152h475.136q67.584 0 116.736-49.152t48.128-115.712v-475.136q0-68.608-48.128-116.736t-116.736-48.128h-475.136q-68.608 0-116.736 48.128t-48.128 116.736zM72.704 247.296q0-37.888 27.648-64.512t64.512-27.648h475.136q37.888 0 64.512 27.648t26.624 64.512v475.136q0 37.888-26.624 64.512t-64.512 26.624h-475.136q-37.888 0-64.512-26.624t-27.648-64.512v-475.136z" horiz-adv-x="804" />
<glyph unicode="&#xe816;" d="M0 372.224q-2.048 22.528 18.432 33.792l950.272 548.864q20.48 12.288 38.912-1.024 19.456-13.312 15.36-36.864l-145.408-877.568q-3.072-16.384-18.432-25.6-8.192-5.12-18.432-5.12-6.144 0-13.312 3.072l-301.056 122.88-169.984-186.368q-10.24-12.288-27.648-12.288-7.168 0-12.288 2.048-11.264 4.096-17.408 13.312t-6.144 21.504v258.048l-270.336 110.592q-20.48 8.192-22.528 30.72zM119.808 380.416l191.488-77.824 493.568 364.544-273.408-454.656 281.6-115.712 125.952 756.736z" />
<glyph unicode="&#xe817;" d="M0 372.224q-1.024 23.552 18.432 33.792l950.272 548.864q9.216 5.12 18.432 5.12 11.264 0 20.48-6.144 19.456-13.312 15.36-36.864l-145.408-877.568q-3.072-16.384-18.432-25.6-8.192-5.12-18.432-5.12-6.144 0-13.312 3.072l-259.072 106.496-138.24-168.96q-10.24-13.312-27.648-13.312-7.168 0-12.288 2.048-11.264 4.096-17.408 13.312t-7.168 21.504v199.68l493.568 604.16-610.304-528.384-226.304 93.184q-20.48 8.192-22.528 30.72z" />
<glyph unicode="&#xe818;" d="M0 451.072l399.36 400.384q19.456 18.432 45.056 18.432t44.032-18.432 18.432-45.056-18.432-44.032l-248.832-248.832h657.408q25.6 0 44.032-18.432t18.432-44.032-18.432-44.032-44.032-18.432h-657.408l248.832-248.832q18.432-18.432 18.432-45.056t-18.432-44.032-44.032-18.432-45.056 18.432z" horiz-adv-x="961" />
<glyph unicode="&#xe819;" d="M0 444.928q0 26.624 18.432 44.032t44.032 17.408h657.408l-247.808 249.856q-19.456 18.432-19.456 45.056t19.456 43.008q17.408 19.456 43.008 19.456t45.056-19.456l399.36-399.36-399.36-400.384q-20.48-18.432-45.056-18.432t-43.008 18.432-19.456 45.056 19.456 44.032l247.808 247.808h-657.408q-25.6 0-44.032 18.432t-18.432 45.056z" horiz-adv-x="961" />
</font>
</defs>
</svg>
